ÍndiceÍndice  PortalPortal  FAQFAQ  BuscarBuscar  MiembrosMiembros  RegistrarseRegistrarse  ConectarseConectarse  





Comparte | 
 

 UFC 140 Jon Jones vs Lyoto Machida 720p x264 BluntzRip

Ver el tema anterior Ver el tema siguiente Ir abajo 
AutorMensaje
cristhianXD
Cinturón negro


Mensajes : 4109
Inscripción : 18/11/2009
Localización : Perú

MensajeTema: UFC 140 Jon Jones vs Lyoto Machida 720p x264 BluntzRip   Dom Dic 11, 2011 5:35 pm

UFC 140 Jon Jones vs Lyoto Machida 720p x264 BluntzRip





Código:
General
Unique ID                                : 227147919614160333006408260759646272457 (0xAAE31917C63B08B18070CE0AC4EA7BC9)
Complete name                            : E:\Frank.Mir.vs.Antonio.Rodrigo.Nogueira.mkv
Format                                  : Matroska
Format version                          : Version 2
File size                                : 179 MiB
Duration                                : 4mn 10s
Overall bit rate mode                    : Variable
Overall bit rate                        : 6 004 Kbps
Encoded date                            : UTC 2011-12-11 03:53:39
Writing application                      : mkvmerge v4.9.1 ('Ich will') built on Jul 11 2011 23:53:15
Writing library                          : libebml v1.2.1 + libmatroska v1.1.1

Video
ID                                      : 1
Format                                  : AVC
Format/Info                              : Advanced Video Codec
Format profile                          : High@L4.1
Format settings, CABAC                  : Yes
Format settings, ReFrames                : 4 frames
Codec ID                                : V_MPEG4/ISO/AVC
Duration                                : 4mn 10s
Bit rate mode                            : Variable
Bit rate                                : 5 551 Kbps
Maximum bit rate                        : 40.0 Mbps
Width                                    : 1 280 pixels
Height                                  : 720 pixels
Display aspect ratio                    : 16:9
Frame rate                              : 29.970 fps
Color space                              : YUV
Chroma subsampling                      : 4:2:0
Bit depth                                : 8 bits
Scan type                                : Progressive
Bits/(Pixel*Frame)                      : 0.201
Stream size                              : 162 MiB (91%)
Writing library                          : x264 core 116 r2074 2641b9e

Audio
ID                                      : 2
Format                                  : AC-3
Format/Info                              : Audio Coding 3
Mode extension                          : CM (complete main)
Codec ID                                : A_AC3
Duration                                : 4mn 10s
Bit rate mode                            : Constant
Bit rate                                : 448 Kbps
Channel(s)                              : 6 channels
Channel positions                        : Front: L C R, Side: L R, LFE
Sampling rate                            : 48.0 KHz
Bit depth                                : 16 bits
Compression mode                        : Lossy
Stream size                              : 13.4 MiB (7%)
Default                                  : Yes
Forced                                  : No



UFC 140 Antonio Rodrigo Nogueira vs Frank Mir 720p x264 BluntzRip

FileSonic
Código:
http://www.filesonic.com/file/4169305225/Frank.Mir.vs.Antonio.Rodrigo.Nogueira.mkv

FileServe
Código:
http://www.fileserve.com/file/gcSdZGn/Frank.Mir.vs.Antonio.Rodrigo.Nogueira.mkv

FileJungle
Código:
http://www.filejungle.com/f/9fTY62/Frank.Mir.vs.Antonio.Rodrigo.Nogueira.mkv
Volver arriba Ir abajo
cristhianXD
Cinturón negro


Mensajes : 4109
Inscripción : 18/11/2009
Localización : Perú

MensajeTema: Re: UFC 140 Jon Jones vs Lyoto Machida 720p x264 BluntzRip   Lun Dic 12, 2011 10:43 am

UFC.140.Jones.vs.Machida.720p.HDTV.x264-RUDOS





[EVENT]: UFC.140.Jones.vs.Machida.720p.HDTV.x264-RUDOS
[RELEASED]: 12.11.2011
[AIRED]: 12.10.2011
[SIZE]: 5.39 GB
[SOURCE]: HD PPV
[CONTAINER]: mp4
[RESOLUTION]: 1280 x 720 (16:9) @ 29.970 FPS
[VIDEO]: x264 @ 4498 kbps
[AUDIO]: AAC @ 192 kbps
[LENGTH]: 164 Mins
NOTE: IF YOUR THINKING Of BUYING PREMIUM..PLEASE GET IT FROM FILESONIC [From my Links Below]



PREMIUM USERS
Código:

FILESONIC
http://www.filesonic.com/file/4179065455/UFC.140.Jones.vs.Machida.720p.HDTV.x264-RUDOS.part5.rar
http://www.filesonic.com/file/4179065325/UFC.140.Jones.vs.Machida.720p.HDTV.x264-RUDOS.part6.rar
http://www.filesonic.com/file/4179059295/UFC.140.Jones.vs.Machida.720p.HDTV.x264-RUDOS.part4.rar
http://www.filesonic.com/file/4179059175/UFC.140.Jones.vs.Machida.720p.HDTV.x264-RUDOS.part3.rar
http://www.filesonic.com/file/4179058875/UFC.140.Jones.vs.Machida.720p.HDTV.x264-RUDOS.part1.rar
http://www.filesonic.com/file/4179056385/UFC.140.Jones.vs.Machida.720p.HDTV.x264-RUDOS.part2.rar



FREE USERS


Código:

FILEJUNGLE
http://www.filejungle.com/f/KbajCs
http://www.filejungle.com/f/ry7xgV
http://www.filejungle.com/f/RCWxeW
http://www.filejungle.com/f/2wuYMj
http://www.filejungle.com/f/4eFumq
http://www.filejungle.com/f/59cBk3

FILESERVE
http://www.fileserve.com/file/H8eYJye
http://www.fileserve.com/file/6WjSqDC
http://www.fileserve.com/file/Kddfm5R
http://www.fileserve.com/file/s2p39c3
http://www.fileserve.com/file/GPegUWU
http://www.fileserve.com/file/vdrqhr9

Thanks to Xtreme oki
Volver arriba Ir abajo
 

UFC 140 Jon Jones vs Lyoto Machida 720p x264 BluntzRip

Ver el tema anterior Ver el tema siguiente Volver arriba 
Página 1 de 1.

Permisos de este foro:No puedes responder a temas en este foro.
Videos, Downloads, Streaming, Watch on Live-Ver en Directo | K-1, GLORY, UFC, BELLATOR, M-1..  ::  Training and Combat Sport :: . :: Multimedia-