ÍndiceÍndice  PortalPortal  FAQFAQ  BuscarBuscar  MiembrosMiembros  RegistrarseRegistrarse  ConectarseConectarse  





Comparte | 
 

 WBA Light-Welterweight.Amir.Khan.vs Paul.McCloskey.PDTV.x264-Sir.Paul

Ver el tema anterior Ver el tema siguiente Ir abajo 
AutorMensaje
cristhianXD
Cinturón negro


Mensajes : 4109
Inscripción : 18/11/2009
Localización : Perú

MensajeTema: WBA Light-Welterweight.Amir.Khan.vs Paul.McCloskey.PDTV.x264-Sir.Paul   Vie Abr 22, 2011 6:16 am




WBA Light-Welterweight.Amir.Khan.vs Paul.McCloskey.16th.April.2011.PDTV.x264-Sir.Paul





Filename:......: WBA Light-Welterweight.Amir.Khan.vs Paul.McCloskey.16th.April.2011.PDTV.x264-Sir.Paul
Release.Date...: 16.04.2011
UK Air.Date.....: 16.04.2011
Capper ........: Sir. Paul
Genre..........: Boxing
Size...........: 513 MB
Source.........: Primetime TV
Container......: AVI
Frame.Rate.....: 25 FPS
Resolution.....: 624 x 352
Aspect.Ratio...: 16.9
Video.Codec....: x264
Video.bitrate..: 1100 kbps
Audio.Codec....: AC3
Audio.bitrate..: 128
Runtime........: 1.02.10 Mins



FILESERVE
Código:
http://www.fileserve.com/file/Fjf43cK/WBA%20Light-Welterweight.Amir.Khan.vs%20Paul.McCloskey.16th.April.2011.PDTV.x264-Sir.Paul.AVI




Amir.Khan.v.Paul.McCloskey.PPV.XviD.XS



Video
ID : 0
Format : xvid
Codec ID : xvid
Duration : 31mn 20s
Bit rate : 1 497 Kbps
Width : 640 pixels
Height : 360 pixels
Display aspect ratio : 16:9
Frame rate : 25.000 fps
Bits/(Pixel*Frame) : 0.260
Stream size : 336 MiB (85%)


Audio
Format : MPEG Audio
Format version : Version 1
Format profile : Layer 3
Mode : Joint stereo
Mode extension : MS Stereo
Codec ID : 55
Codec ID/Hint : MP3
Duration : 31mn 20s
Bit rate mode : Constant
Bit rate : 256 Kbps
Channel(s) : 2 channels
Sampling rate : 48.0 KHz
Compression mode : Lossy
Stream size : 57.4 MiB (14%)
Alignment : Aligned on interleaves
Interleave, duration : 24 ms (0.60 video frame)
Interleave, preload duration : 504 ms



FILESERVE
Código:
http://www.fileserve.com/file/2Nhn2mK/Amir.Khan.v.Paul.McCloskey.PPV.XviD.XS.avi



Uploading by Xalman
Volver arriba Ir abajo
 

WBA Light-Welterweight.Amir.Khan.vs Paul.McCloskey.PDTV.x264-Sir.Paul

Ver el tema anterior Ver el tema siguiente Volver arriba 
Página 1 de 1.

Permisos de este foro:No puedes responder a temas en este foro.
Videos, Downloads, Streaming, Watch on Live-Ver en Directo | K-1, GLORY, UFC, BELLATOR, M-1..  ::  Training and Combat Sport :: . :: Multimedia-