ÍndiceÍndice  PortalPortal  FAQFAQ  BuscarBuscar  MiembrosMiembros  RegistrarseRegistrarse  ConectarseConectarse  





Comparte | 
 

 Strikeforce.Feijao.vs.Henderson.2011.720p.HDTV.x26 4-XS

Ver el tema anterior Ver el tema siguiente Ir abajo 
AutorMensaje
cristhianXD
Cinturón negro


Mensajes : 4109
Inscripción : 18/11/2009
Localización : Perú

MensajeTema: Strikeforce.Feijao.vs.Henderson.2011.720p.HDTV.x26 4-XS   Lun Mar 07, 2011 5:41 am

Strikeforce.Feijao.vs.Henderson.2011.720p.HDTV.x26 4-XS


General Information
Format : Matroska
File size : 3.48 GiB
Duration : 2h 10mn
Overall bit rate : 3 814 Kbps
Writing application : Lavf51.12.1
Writing library : Lavf51.12.1
Video
ID : 1
Format : AVC
Format/Info : Advanced Video Codec
Format profile : Baseline@L1.3
Format settings, CABAC : No
Format settings, ReFrames : 1 frame
Muxing mode : Container profile=Unknown@1.3
Codec ID : V_MPEG4/ISO/AVC
Duration : 2h 10mn
Bit rate : 3 547 Kbps
Width : 1 280 pixels
Height : 720 pixels
Display aspect ratio : 16:9
Frame rate : 29.970 fps
Color space : YUV
Chroma subsampling : 4:2:0
Bit depth : 8 bits
Scan type : Progressive
Bits/(Pixel*Frame) : 0.128
Stream size : 3.24 GiB (93%)
Language : English
Audio
ID : 2
Format : AC-3
Format/Info : Audio Coding 3
Mode extension : CM (complete main)
Codec ID : A_AC3
Duration : 2h 10mn
Bit rate mode : Constant
Bit rate : 192 Kbps
Channel(s) : 2 channels
Channel positions : Front: L R
Sampling rate : 48.0 KHz
Bit depth : 16 bits
Stream size : 180 MiB (5%)
Language : English


Fight Card
Rafael Cavalcante vs. Dan Henderson
Tim Kennedy vs. Melvin Manhoef
Marloes Coenen vs. Liz Carmouche
Billy Evangelista vs. Jorge Masvidal
Screenshots


Código:
http://lulzimg.com/i14/1ea612.jpg
http://lulzimg.com/i14/86d097.jpg


HOTILE

Código:
http://hotfile.com/dl/108944974/7e1c13a/Strikeforce.Feijao.vs.Henderson.2011.720p.HDTV.x264-XS.Fight-BB.part1.rar.html
http://hotfile.com/dl/108944975/397db66/Strikeforce.Feijao.vs.Henderson.2011.720p.HDTV.x264-XS.Fight-BB.part2.rar.html
http://hotfile.com/dl/108945077/da5d6cc/Strikeforce.Feijao.vs.Henderson.2011.720p.HDTV.x264-XS.Fight-BB.part3.rar.html
http://hotfile.com/dl/108945078/5526deb/Strikeforce.Feijao.vs.Henderson.2011.720p.HDTV.x264-XS.Fight-BB.part4.rar.html

FILESERVE

Código:
http://www.fileserve.com/file/ZNzqHeX/Strikeforce.Feijao.vs.Henderson.2011.720p.HDTV.x264-XS.Fight-BB.part1.rar
http://www.fileserve.com/file/H6fjAyV/Strikeforce.Feijao.vs.Henderson.2011.720p.HDTV.x264-XS.Fight-BB.part2.rar
http://www.fileserve.com/file/3dmeqrj/Strikeforce.Feijao.vs.Henderson.2011.720p.HDTV.x264-XS.Fight-BB.part3.rar
http://www.fileserve.com/file/wprxV4q/Strikeforce.Feijao.vs.Henderson.2011.720p.HDTV.x264-XS.Fight-BB.part4.rar








Strikeforce.Feijao.vs.Henderson.2011.720p.HDTV.x26 4-aAF



AGGRESSIVE ARCHIVE FORCE

Strikeforce.Feijao.vs.Henderson.2011.720p.HDTV.x26 4-aAF

RELEASE DATE: 2011.03.06

*Cpl minor glitches, nothing to get your panties in a bunch about


Código:
http://www.fileserve.com/file/QQbXPq4/aaf-sffvh.720p.mkv.001
http://www.fileserve.com/file/XfnqsfC/aaf-sffvh.720p.mkv.002
http://www.fileserve.com/file/dZCJ7qQ/aaf-sffvh.720p.mkv.002
http://www.fileserve.com/file/6urMgDJ/aaf-sffvh.720p.mkv.004

Volver arriba Ir abajo
 

Strikeforce.Feijao.vs.Henderson.2011.720p.HDTV.x26 4-XS

Ver el tema anterior Ver el tema siguiente Volver arriba 
Página 1 de 1.

Permisos de este foro:No puedes responder a temas en este foro.
Videos, Downloads, Streaming, Watch on Live-Ver en Directo | K-1, GLORY, UFC, BELLATOR, M-1..  ::  Training and Combat Sport :: . :: Multimedia-